Recommend
First CAM
Avengers Endgame 2019 480p HDCAM V2 Dual Audio 700MB Hindi-English x264 CineVood ExclusiveAvengers Endgame 2019 720p HDCAM V2 Dual Audio 1.2GB Hindi-English x264 CineVood ExclusiveAvengers Endgame 2019 NEW 720p HDCAM-1XBETI Spit on Your Grave Deja Vu.2019.BDRip.XviD.AC3-EVO

WEB/HDRip
Avengers Endgame 2019 480p HDCAM V2 Dual Audio 700MB Hindi-English x264 CineVood ExclusiveAvengers Endgame 2019 720p HDCAM V2 Dual Audio 1.2GB Hindi-English x264 CineVood ExclusiveAvengers Endgame 2019 NEW 720p HDCAM-1XBETI Spit on Your Grave Deja Vu.2019.BDRip.XviD.AC3-EVO

Bluray/DVDs
Avengers Endgame 2019 480p HDCAM V2 Dual Audio 700MB Hindi-English x264 CineVood ExclusiveAvengers Endgame 2019 720p HDCAM V2 Dual Audio 1.2GB Hindi-English x264 CineVood ExclusiveAvengers Endgame 2019 NEW 720p HDCAM-1XBETI Spit on Your Grave Deja Vu.2019.BDRip.XviD.AC3-EVO

TV
Avengers Endgame 2019 480p HDCAM V2 Dual Audio 700MB Hindi-English x264 CineVood ExclusiveAvengers Endgame 2019 720p HDCAM V2 Dual Audio 1.2GB Hindi-English x264 CineVood ExclusiveAvengers Endgame 2019 NEW 720p HDCAM-1XBETI Spit on Your Grave Deja Vu.2019.BDRip.XviD.AC3-EVO


Torrent Details For "18+.Marfa.Girl.2.2018.HDRip.XviD.AC3.LLG"

18+.Marfa.Girl.2.2018.HDRip.XviD.AC3.LLG

Download this torrent | Magnet Download
Health:
Seeds: 80
Leechers: 72
Completed: 90 
Last Checked: 27-04-2019 00:19:41
External Torrent
Update Stats



Poster
No poster


iMDB
Title: Marfa Girl 2
Language: English
Director: Larry Clark
Writing By: Larry Clark,
Produced By: Win Craft,Adam Sherman,
Cast:
Adam Mediano as Adam
Drake Burnette as Marfa Girl
Mercedes Maxwell as Inez
Jonathan Velasquez as Miguel
Indigo Rael as Donna
Jeremy St. James as Tom
Mary Farley as Mary
Lucas Elliot Eberl as Luke
Edgar Morais as Zaden
Hunter Cudini as Tom's Son



Details
Name:18+.Marfa.Girl.2.2018.HDRip.XviD.AC3.LLG
Description:

Quote:



******************************Thumbnail:**********************

 

******************************Screenshots:********************

 Screenshot 1

 Screenshot 2

 Screenshot 3

 Screenshot 4

 Screenshot 5

 Screenshot 6

 Screenshot 7

 Screenshot 8

 Screenshot 9

 Screenshot 0


******************************************************

18+.Marfa.Girl.2.2018.HDRip.XviD.AC3.LLG.mp4
Format                                   : MPEG-4
Format profile                           : Base Media
Codec ID                                 : isom (isom/iso2/avc1/mp41)
File size                                : 939 MiB
Duration                                 : 1 h 14 min
Overall bit rate mode                    : Variable
Overall bit rate                         : 1 764 kb/s
Writing application                      : Lavf57.83.100

Video
ID                                       : 1
Format                                   : AVC
Format/Info                              : Advanced Video Codec
Format profile                           : [email protected]
Format settings                          : CABAC / 1 Ref Frames
Format settings, CABAC                   : Yes
Format settings, RefFrames               : 1 frame
Codec ID                                 : avc1
Codec ID/Info                            : Advanced Video Coding
Duration                                 : 1 h 14 min
Bit rate mode                            : Variable
Bit rate                                 : 1 377 kb/s
Maximum bit rate                         : 4 500 kb/s
Width                                    : 720 pixels
Height                                   : 304 pixels
Display aspect ratio                     : 2.35:1
Frame rate mode                          : Constant
Frame rate                               : 23.976 (23976/1000) FPS
Color space                              : YUV
Chroma subsampling                       : 4:2:0
Bit depth                                : 8 bits
Scan type                                : Progressive
Bits/(Pixel*Frame)                       : 0.262
Stream size                              : 732 MiB (78%)
Codec configuration box                  : avcC

Audio
ID                                       : 2
Format                                   : AC-3
Format/Info                              : Audio Coding 3
Commercial name                          : Dolby Digital
Codec ID                                 : ac-3
Duration                                 : 1 h 14 min
Bit rate mode                            : Constant
Bit rate                                 : 384 kb/s
Channel(s)                               : 6 channels
Channel layout                           : L R C LFE Ls Rs
Sampling rate                            : 48.0 kHz
Frame rate                               : 31.250 FPS (1536 SPF)
Bit depth                                : 16 bits
Compression mode                         : Lossy
Stream size                              : 204 MiB (22%)
Service kind                             : Complete Main
Default                                  : Yes
Alternate group                          : 1





********************************************************


Category:Movies > HDRips
Lang:English  English
Total Size:967.26 MB
Info Hash:08875d92405fab121244bf3036e454b1503fe5c5
Added By:Unknown
Date Added:26-04-2019 20:16:30
Downloads:125

Ratings:Not Yet Rated (Log in to rate it)


Tracker:
udp://tracker.openbittorrent.com:80/announce


File List: 


Comments

No comments still posted

Top
Copyright 2019 FOXTorrents.net -|- Page Generated In 0.545842 secs.
-|- RSS Feed -|- Feed Info