Recommend
First CAM
Amavas 2019 Hindi 720p WEB-DL foxtorrentsAvengers Endgame 2019 480p HDCAM V2 Dual Audio 700MB Hindi-English x264 CineVood ExclusiveAvengers Endgame 2019 720p HDCAM V2 Dual Audio 1.2GB Hindi-English x264 CineVood ExclusiveAvengers Endgame 2019 NEW 720p HDCAM-1XBET

WEB/HDRip
Amavas 2019 Hindi 720p WEB-DL foxtorrentsAvengers Endgame 2019 480p HDCAM V2 Dual Audio 700MB Hindi-English x264 CineVood ExclusiveAvengers Endgame 2019 720p HDCAM V2 Dual Audio 1.2GB Hindi-English x264 CineVood ExclusiveAvengers Endgame 2019 NEW 720p HDCAM-1XBET

Bluray/DVDs
Amavas 2019 Hindi 720p WEB-DL foxtorrentsAvengers Endgame 2019 480p HDCAM V2 Dual Audio 700MB Hindi-English x264 CineVood ExclusiveAvengers Endgame 2019 720p HDCAM V2 Dual Audio 1.2GB Hindi-English x264 CineVood ExclusiveAvengers Endgame 2019 NEW 720p HDCAM-1XBET

TV
Amavas 2019 Hindi 720p WEB-DL foxtorrentsAvengers Endgame 2019 480p HDCAM V2 Dual Audio 700MB Hindi-English x264 CineVood ExclusiveAvengers Endgame 2019 720p HDCAM V2 Dual Audio 1.2GB Hindi-English x264 CineVood ExclusiveAvengers Endgame 2019 NEW 720p HDCAM-1XBET


Torrent Details For "Spy Game 2001 x264 720p Esub BluRay 6.0 Dual Audio English Hindi GOPISAHI"

Torrent details
Cover
Download
Name:
Spy Game 2001 x264 720p Esub BluRay 6.0 Dual Audio English Hindi GOPISAHI
Controls:
Category:
Movies > Hollywood Dub
Total Size:
992.83 MB
Info Hash:
b410517b23e4b6601aad452f2979e4d78aa9c880
Added By:
Unknown/NA
Added:
26-04-2019 04:05:40
Views:
262
Health:
Seeders:
453
Leechers:
808
Completed:
171



Description




Spy Game 2001 x264 720p Esub BluRay 6.0 Dual Audio English Hindi GOPISAHI

Format                         : Matroska
Format version                 : Version 4 / Version 2
File size                      : 993 MiB
Duration                       : 2 h 6 min
Overall bit rate               : 1 097 kb/s
Movie name                     : Spy Game 2001 GOPISAHI

Video
ID                             : 1
Format                         : AVC
Format/Info                    : Advanced Video Codec
Format profile                 : [email protected]
Format settings                : CABAC / 16 Ref Frames
Format settings, CABAC         : Yes
Format settings, ReFrames      : 16 frames
Codec ID                       : V_MPEG4/ISO/AVC
Duration                       : 2 h 6 min
Bit rate                       : 699 kb/s
Width                          : 1 280 pixels
Height                         : 544 pixels
Display aspect ratio           : 2.35:1
Frame rate mode                : Constant
Frame rate                     : 23.976 (24000/1001) FPS
Color space                    : YUV
Chroma subsampling             : 4:2:0
Bit depth                      : 8 bits
Scan type                      : Progressive
Bits/(Pixel*Frame)             : 0.042
Stream size                    : 632 MiB (64%)
Title                          : GOPISAHI
Writing library                : x264 core 157 r2935 545de2f

Audio #1
Format                         : AAC
Duration                       : 2 h 6 min
Bit rate                       : 192 kb/s
Channel(s)                     : 6 channels
Channel positions              : Front: L C R, Side: C, Back: L R
Sampling rate                  : 48.0 kHz
Frame rate                     : 46.875 FPS (1024 SPF)
Compression mode               : Lossy
Delay relative to video        : 178 ms
Stream size                    : 174 MiB (18%)
Title                          : GOPISAHI
Language                       : Hindi

Audio #2
Format                         : AAC
Duration                       : 2 h 6 min
Bit rate                       : 192 kb/s
Channel(s)                     : 6 channels
Channel positions              : Front: L C R, Side: C, Back: L R
Sampling rate                  : 48.0 kHz
Frame rate                     : 46.875 FPS (1024 SPF)
Compression mode               : Lossy
Delay relative to video        : -21 ms
Stream size                    : 174 MiB (18%)
Title                          : GOPISAHI
Language                       : English

Text #1
Format                         : PGS
Muxing mode                    : zlib
Codec ID                       : S_HDMV/PGS
Count of elements              : 2897
Stream size                    : 33.4 MiB (3%)
Title                          : GOPISAHI
Language                       : English

Text #2
Format                         : PGS
Muxing mode                    : zlib
Codec ID                       : S_HDMV/PGSI
Language                       : English

Menu
00:00:00.000                   : :Chapter 1
00:08:24.129                   : :Chapter 2
00:11:54.756                   : :Chapter 3
00:19:08.022                   : :Chapter 4
00:27:59.720                   : :Chapter 5
00:33:22.125                   : :Chapter 6
00:40:13.328                   : :Chapter 7
00:47:55.373                   : :Chapter 8
00:50:50.047                   : :Chapter 9
00:57:17.851                   : :Chapter 10
01:01:47.037                   : :Chapter 11
01:08:15.883                   : :Chapter 12
01:15:05.126                   : :Chapter 13
01:22:25.899                   : :Chapter 14
01:24:54.548                   : :Chapter 15
01:26:04.076                   : :Chapter 16
01:30:24.002                   : :Chapter 17
01:35:34.103                   : :Chapter 18
01:38:24.732                   : :Chapter 19
01:48:53.110                   : :Chapter 20
01:54:36.411                   : :Chapter 21
02:01:33.995                   : :Chapter 22







Comments

No comments still posted

Top
Copyright 2019 FOXTorrents.net -|- Page Generated In 0.913758 secs.
-|- RSS Feed -|- Feed Info
HERE torrent = $id"); $subrow = mysql_fetch_array($subres); $commcount = $subrow[0]; if ($commcount) { list($pagertop, $pagerbottom, $limit) = pager(10, $commcount, "torrents-details.php?id=$id&"); $commquery = "SELECT comments.id, text, user, comments.added, avatar, signature, username, title, class, uploaded, downloaded, privacy, donated FROM comments LEFT JOIN users ON comments.user = users.id WHERE torrent = $id ORDER BY comments.id $limit"; $commres = SQL_Query_exec($commquery); }else{ unset($commres); } if ($commcount) { print($pagertop); commenttable($commres, 'torrent'); print($pagerbottom); }else { print("
" .T_("NOCOMMENTS"). "
\n"); } require_once("backend/bbcode.php"); if ($CURUSER) { echo "
"; echo "
"; echo textbbcode("comment","body")."
"; echo "